Take the 2-minute tour ×
Unix & Linux Stack Exchange is a question and answer site for users of Linux, FreeBSD and other Un*x-like operating systems.. It's 100% free, no registration required.

Main code: ffmpeg -i 2269801.avi -threads 0 -vcodec libx264 -b 900k -acodec libfaac -ar 44100 -ab 96k -ac 2 earthgirlsareeasy1.mp4

[libx264 @ 0x16cdde10]broken ffmpeg default settings detected
[libx264 @ 0x16cdde10]use an encoding preset (e.g. -vpre medium)
[libx264 @ 0x16cdde10]preset usage: -vpre <speed> -vpre <profile>
[libx264 @ 0x16cdde10]speed presets are listed in x264 --help
[libx264 @ 0x16cdde10]profile is optional; x264 defaults to high
Output #0, mp4, to 'earthgirlsareeasy1.mp4':
    Stream #0.0: Video: libx264, yuv420p, 720x336 [PAR 1:1 DAR 15:7], q=2-31, 900 kb/s, 90k tbn, 23.98 tbc
    Stream #0.1: Audio: libfaac, 44100 Hz, 2 channels, s16, 96 kb/s
    Metadata:
      strn            : Audio Stream
Stream mapping:
  Stream #0.0 -> #0.0
  Stream #0.1 -> #0.1
Error while opening encoder for output stream #0.0 - maybe incorrect parameters such as         bit_rate, rate, width or height

All lines http://pastie.org/private/0xmgwzhbu9kkplwi6a49qa

Note: I am using centOS running 5.8

share|improve this question

Your Answer

 
discard

By posting your answer, you agree to the privacy policy and terms of service.

Browse other questions tagged or ask your own question.